<?xml version="1.0" standalone="no"?>
<!DOCTYPE svg PUBLIC "-//W3C//DTD SVG 1.1//EN" "http://www.w3.org/Graphics/SVG/1.1/DTD/svg11.dtd" >
<svg xmlns="http://www.w3.org/2000/svg">
<metadata>Generated by IcoMoon</metadata>
<defs>
<font id="icomoon" horiz-adv-x="1024">
<font-face units-per-em="1024" ascent="960" descent="-64" />
<missing-glyph horiz-adv-x="1024" />
<glyph unicode="&#x20;" horiz-adv-x="512" d="" />
<glyph unicode="&#xe900;" glyph-name="telephone" d="M778.514 282.604c-33.454 33.028-75.219 33.028-108.46 0-25.357-25.144-50.714-50.288-75.645-75.858-6.819-7.032-12.572-8.523-20.882-3.836-16.408 8.95-33.88 16.194-49.649 25.996-73.514 46.239-135.096 105.69-189.645 172.599-27.062 33.241-51.14 68.826-67.974 108.886-3.409 8.097-2.77 13.424 3.836 20.030 25.357 24.505 50.075 49.649 75.006 74.793 34.733 34.946 34.733 75.858-0.213 111.017-19.817 20.030-39.634 39.634-59.451 59.664-20.456 20.456-40.699 41.125-61.368 61.368-33.454 32.602-75.219 32.602-108.46-0.213-25.57-25.144-50.075-50.927-76.071-75.645-24.079-22.8-36.224-50.714-38.781-83.316-4.049-53.058 8.95-103.133 27.275-151.929 37.503-101.002 94.61-190.711 163.862-272.962 93.544-111.23 205.201-199.234 335.822-262.733 58.811-28.553 119.754-50.501 186.023-54.124 45.6-2.557 85.234 8.95 116.984 44.535 21.735 24.292 46.239 46.452 69.253 69.679 34.094 34.52 34.307 76.284 0.426 110.378-40.486 40.699-81.185 81.185-121.884 121.671zM737.814 452.432l78.628 13.424c-12.359 72.236-46.452 137.653-98.232 189.645-54.763 54.763-124.015 89.283-200.3 99.937l-11.080-79.054c59.024-8.31 112.722-34.946 155.126-77.35 40.060-40.060 66.269-90.774 75.858-146.602zM860.764 794.22c-90.774 90.774-205.627 148.094-332.412 165.78l-11.080-79.054c109.526-15.342 208.823-64.991 287.238-143.193 74.367-74.367 123.163-168.337 140.849-271.683l78.628 13.424c-20.669 119.754-77.137 228.427-163.223 314.726z" />
<glyph unicode="&#xe901;" glyph-name="email" d="M934 838h-844c-13.854 0-26.824-3.406-38.558-9.020l458.558-458.558 102.778 98.774c0 0 0.008 0.010 0.010 0.014s0.010 0.008 0.010 0.008l359.774 359.754c-11.736 5.618-24.714 9.028-38.572 9.028zM1014.992 786.544l-338.566-338.548 338.554-338.554c5.614 11.734 9.020 24.704 9.020 38.558v600c0 13.846-3.398 26.814-9.008 38.544zM9.020 786.558c-5.614-11.734-9.020-24.704-9.020-38.558v-600c0-13.846 3.402-26.818 9.012-38.548l338.566 338.548-338.558 338.558zM634.004 405.574l-102.792-98.786c-5.86-5.86-13.536-8.79-21.21-8.79s-15.352 2.93-21.21 8.79l-98.792 98.79-338.572-338.55c11.736-5.618 24.714-9.028 38.572-9.028h844c13.854 0 26.824 3.406 38.558 9.020l-338.554 338.554z" />
<glyph unicode="&#xe902;" glyph-name="pin" d="M512 960c-211.75 0-384-172.27-384-384 0-283.292 354.292-620 369.376-634.208 4.124-3.854 9.374-5.792 14.624-5.792s10.5 1.938 14.626 5.792c15.082 14.208 369.374 350.916 369.374 634.208 0 211.73-172.25 384-384 384zM512 362.666c-117.626 0-213.334 95.708-213.334 213.334s95.71 213.334 213.334 213.334 213.334-95.71 213.334-213.334-95.708-213.334-213.334-213.334z" />
<glyph unicode="&#xe903;" glyph-name="calendar" d="M921.6 857.6h-51.2v51.2c0 30.72-20.48 51.2-51.2 51.2s-51.2-20.48-51.2-51.2v-51.2h-512v51.2c0 30.72-20.48 51.2-51.2 51.2s-51.2-20.48-51.2-51.2v-51.2h-102.4c-25.6 0-51.2-20.48-51.2-51.2v-716.8c0-30.72 25.6-51.2 51.2-51.2h312.32c-35.84 61.44-56.32 133.12-56.32 204.8 0 225.28 184.32 409.6 409.6 409.6 97.28 0 184.32-35.84 256-92.16v245.76c0 25.6-25.6 51.2-51.2 51.2zM716.8 550.4c-168.96 0-307.2-138.24-307.2-307.2s138.24-307.2 307.2-307.2 307.2 138.24 307.2 307.2-138.24 307.2-307.2 307.2zM819.2 192h-102.4c-30.72 0-51.2 20.48-51.2 51.2v153.6c0 30.72 20.48 51.2 51.2 51.2s51.2-20.48 51.2-51.2v-102.4h51.2c30.72 0 51.2-20.48 51.2-51.2s-20.48-51.2-51.2-51.2z" />
<glyph unicode="&#xe904;" glyph-name="placeholder" d="M777.765 333.902c-22.87 5.546-45.909-8.746-51.327-31.657-5.462-22.912 8.746-45.909 31.657-51.327 132.519-31.445 180.562-77.95 180.562-101.588 0-50.985-170.151-127.998-426.658-127.998-256.465 0-426.658 77.012-426.658 127.998 0 23.638 48.085 70.143 180.518 101.588 22.954 5.418 37.119 28.415 31.657 51.327-5.418 22.912-28.457 37.205-51.327 31.657-158.759-37.631-246.181-103.166-246.181-184.572 0-140.029 257.617-213.33 511.99-213.33 254.417 0 511.99 73.301 511.99 213.33 0 81.406-87.422 146.941-246.225 184.572zM512.020 618.645c23.552 0 42.665 19.114 42.665 42.665s-19.114 42.665-42.665 42.665-42.665-19.114-42.665-42.665 19.114-42.665 42.665-42.665zM456.469 164.98l17.366-34.729c7.254-14.464 22.016-23.594 38.185-23.594s30.933 9.13 38.185 23.594l36.777 73.557c44.757 89.556 99.966 176.295 153.341 260.177l24.32 38.271c30.121 47.615 46.037 102.612 46.037 159.059 0 84.99-36.393 166.227-99.838 222.886-63.401 56.617-148.689 83.75-233.721 73.767-132.777-15.104-242.427-122.024-260.817-254.203-10.88-78.334 8.704-156.115 55.081-219.090 72.363-98.044 128.851-207.142 185.084-319.694zM512.020 789.309c70.569 0 127.998-57.429 127.998-127.998s-57.429-127.998-127.998-127.998-127.998 57.429-127.998 127.998c0 70.569 57.429 127.998 127.998 127.998z" />
<glyph unicode="&#xe905;" glyph-name="career-choice" d="M548.16 123.36c0 19.971-16.189 36.16-36.16 36.16s-36.16-16.189-36.16-36.16v0l-18.080-137.12c0-0.046 0-0.101 0-0.155 0-6.758-2.095-13.026-5.67-18.191l0.070 0.106h119.68c-3.506 5.059-5.6 11.327-5.6 18.085 0 0.055 0 0.109 0 0.164v-0.008zM793.44 521.28l49.6-65.12-115.84-81.44-82.72 341.76h215.040l-347.52 211.52-347.52-211.52h215.040l-49.6-292.96-132.48 32 66.24 97.6-231.68-15.68 33.12-244 66.24 97.6 82.72-146.4c23.040-56.8 19.2-112 24.32-173.28l8.8-103.36h144c-3.506 5.059-5.6 11.327-5.6 18.085 0 0.055 0 0.109 0 0.164v-0.008l49.6 353.12c-0.299 3.907-3.542 6.963-7.499 6.963-2.502 0-4.719-1.222-6.086-3.102l-0.015-0.022-90.24-116.96c-6.699-10.369-18.2-17.136-31.281-17.136-6.607 0-12.811 1.726-18.185 4.752l0.186-0.096c-10.802 5.69-18.041 16.841-18.041 29.683 0 6.351 1.77 12.288 4.844 17.345l-0.084-0.148 92.48 117.6c26.612 32.9 66.979 53.763 112.22 53.763 0.317 0 0.633-0.001 0.949-0.003h75.151c0.268 0.002 0.584 0.003 0.9 0.003 45.24 0 85.608-20.863 112.007-53.492l0.212-0.271 92.48-117.6c2.99-4.909 4.761-10.846 4.761-17.197 0-12.842-7.239-23.993-17.858-29.595l-0.182-0.088c-5.188-2.929-11.392-4.656-17.999-4.656-13.081 0-24.582 6.766-31.193 16.99l-0.088 0.145-90.24 106.72c-1.382 1.901-3.599 3.123-6.101 3.123-3.957 0-7.201-3.057-7.498-6.938l-0.002-0.026 49.6-342.88c0-0.046 0-0.101 0-0.155 0-6.758-2.095-13.026-5.67-18.191l0.070 0.106h144v57.12c0.048 73.657 12.464 144.397 35.282 210.28l-1.362-4.52c11.305 32.24 27.622 60.052 48.281 84.013l-0.281-0.333 51.040 60.16 66.24-48.8 16 195.36zM512 456c-44.183 0-80 35.817-80 80s35.817 80 80 80c44.183 0 80-35.817 80-80v0c0-44.183-35.817-80-80-80v0z" />
<glyph unicode="&#xe906;" glyph-name="tick" d="M1009.004 809.008c-19.994 19.996-52.41 19.996-72.408 0l-613.408-613.414-235.784 235.784c-19.994 19.996-52.41 19.994-72.408 0-19.996-19.994-19.996-52.41 0-72.406l271.988-271.984c19.988-19.994 52.428-19.98 72.408 0l649.612 649.612c19.996 19.994 19.994 52.412 0 72.408z" />
<glyph unicode="&#xe907;" glyph-name="cardiogram" d="M511.709 825.016c-223.201 195.221-506.997 23.694-511.651-208.838-1.186-59.261 15.921-116.987 49.972-170.205h220.711l39.257 65.431c11.399 18.997 38.985 19.609 51.030 0.67l82.828-130.156 120.737 254.883c10.529 22.24 41.909 22.946 53.522 1.38l103.496-192.207h251.777c186.51 291.498-182.096 623.575-461.679 379.043zM677.282 401.755l-83.866 155.75-118.593-250.361c-10.089-21.3-39.765-23.15-52.418-3.264l-85.933 135.036-23.024-38.373c-5.422-9.035-15.185-14.563-25.722-14.563h-190.242c5.964-6.242-25.82 25.478 393.066-391.238 11.699-11.641 30.612-11.643 42.313 0 412.441 410.305 387.115 385.009 393.066 391.238h-222.235c-11.037-0.002-21.18 6.058-26.412 15.775z" />
<glyph unicode="&#xe908;" glyph-name="chat" d="M952 880h-752c-30.914-0.035-55.965-25.086-56-55.997v-152.003h-72c-30.914-0.035-55.965-25.086-56-55.997v-432.003c0.035-30.914 25.086-55.965 55.997-56h40.003v-112c0-0.004 0-0.008 0-0.013 0-8.837 7.163-16 16-16 4.421 0 8.424 1.793 11.32 4.692v0l123.3 123.32h465.38c30.914 0.035 55.965 25.086 56 55.997v33.383l100.68-100.7c2.896-2.899 6.899-4.693 11.32-4.693 8.837 0 16 7.163 16 16 0 0.004 0 0.009 0 0.013v-0.001 112h40c30.914 0.035 55.965 25.086 56 55.997v528.003c-0.035 30.914-25.086 55.965-55.997 56h-0.003zM752 184c-0.011-13.25-10.75-23.989-23.999-24h-472.001c-0.002 0-0.004 0-0.006 0-4.417 0-8.417-1.788-11.314-4.68v0l-100.68-100.7v89.38c0 8.837-7.163 16-16 16v0h-56c-13.25 0.011-23.989 10.75-24 23.999v432.001c0.011 13.25 10.75 23.989 23.999 24h72.001v-344c0.035-30.914 25.086-55.965 55.997-56h552.003zM976 296c-0.011-13.25-10.75-23.989-23.999-24h-56.001c-8.837 0-16-7.163-16-16v0-89.38l-100.68 100.7c-2.897 2.892-6.897 4.68-11.314 4.68-0.002 0-0.004 0-0.006 0h-568c-13.25 0.011-23.989 10.75-24 23.999v528.001c0.011 13.25 10.75 23.989 23.999 24h752.001c13.25-0.011 23.989-10.75 24-23.999v-0.001zM863.52 467.88l-48 192c-1.797 7.016-8.062 12.119-15.52 12.12h-32c-7.458-0.001-13.723-5.104-15.496-12.009l-0.024-0.111-48-192c-0.263-1.086-0.413-2.332-0.413-3.614 0-8.837 7.163-16 16-16 7.362 0 13.563 4.972 15.427 11.742l0.026 0.112 16.98 67.88h63l16.98-67.88c1.795-7.009 8.051-12.109 15.499-12.12h0.001c1.386 0.002 2.73 0.177 4.013 0.504l-0.113-0.024c7.016 1.793 12.12 8.057 12.12 15.513 0 1.381-0.175 2.72-0.504 3.998l0.024-0.111zM760.5 560l20 80h7l20-80zM684.8 473.6l-41.2 54.94 25.72 38.58c1.684 2.495 2.689 5.57 2.689 8.88 0 8.841-7.167 16.009-16.009 16.009-5.532 0-10.408-2.806-13.284-7.072l-0.036-0.057-17.32-25.98c-7.16 11.32-16.92 24.3-28.76 34.1 7.066 8.304 11.364 19.154 11.364 31.007 0 26.5-21.482 47.982-47.982 47.982s-47.982-21.482-47.982-47.982c0-9.958 3.034-19.208 8.227-26.876l-0.108 0.169c-24.147-14.066-40.119-39.834-40.119-69.332 0-44.165 35.803-79.968 79.968-79.968 0.011 0 0.022 0 0.033 0h-0.002c29.32 0 52.7 28.72 66.18 50.42l33.020-44.020c2.95-3.904 7.583-6.4 12.8-6.4 8.837 0 16 7.163 16 16 0 3.62-1.202 6.959-3.229 9.64l0.029-0.040zM560 640c8.837 0 16-7.163 16-16s-7.163-16-16-16c-8.837 0-16 7.163-16 16v0c0.013 8.832 7.168 15.987 15.999 16h0.001zM560 480c-26.51 0-48 21.49-48 48s21.49 48 48 48v0c15.34 0 35.24-26.64 46.24-48-11-21.36-30.9-48-46.24-48zM473.56 459.080l-16.78 17.48c4.541 7.869 7.22 17.307 7.22 27.37 0 0.025 0 0.049 0 0.074v-0.004 112c-0.035 30.914-25.086 55.965-55.997 56h-48.003c-30.914-0.035-55.965-25.086-56-55.997v-112.003c0.035-30.914 25.086-55.965 55.997-56h48.003c0.006 0 0.014 0 0.022 0 9.416 0 18.285 2.338 26.060 6.466l-0.301-0.146 16.66-17.4c2.919-3.042 7.019-4.932 11.56-4.932 8.843 0 16.012 7.169 16.012 16.012 0 4.302-1.697 8.208-4.458 11.086l0.005-0.006zM432 504c0-0.5-0.040-1-0.080-1.5l-4.36 4.58c-2.919 3.042-7.019 4.932-11.56 4.932-8.843 0-16.012-7.169-16.012-16.012 0-4.302 1.697-8.208 4.458-11.086l-0.005 0.006 4.68-4.86c-0.38-0.020-0.74-0.060-1.12-0.060h-48c-13.25 0.011-23.989 10.75-24 23.999v112.001c0.011 13.25 10.75 23.989 23.999 24h48.001c13.25-0.011 23.989-10.75 24-23.999v-0.001z" />
<glyph unicode="&#xe909;" glyph-name="city-hall" d="M433 590h32v-30h-32v30zM497 590h32v-30h-32v30zM561 590h32v-30h-32v30zM911 30v370h64v94h-73.46l-374.54 249.028v72.972h128v126h-128v18h-30v-216.972l-372.542-249.028h-75.458v-94h64v-370h-64v-94h926v94h-64zM881 30h-66v370h66v-370zM337 400v-336h30v336h66v-370h-194v370h98zM463 400h98v-370h-98v370zM591 400h66v-370h-66v370zM687 400h98v-370h-98v370zM625 912v-66h-98v66h98zM513 716.972l334.458-222.972h-668.918l334.46 222.972zM79 464h866v-34h-866v34zM143 400h66v-370h-66v370zM945-34h-866v34h866v-34z" />
<glyph unicode="&#xe90a;" glyph-name="loan" d="M752 429.056v34.944h-32v-32h-32v-48c0-26.464 21.536-48 48-48 8.832 0 16-7.184 16-16v-16h-16c-8.832 0-16 7.184-16 16v16h-32v-16c0-20.832 13.424-38.432 32-45.056v-34.944h32v32h32v48c0 26.464-21.536 48-48 48-8.832 0-16 7.184-16 16v16h16c8.832 0 16-7.184 16-16v-16h32v16c0 20.832-13.424 38.432-32 45.056zM80 272h32v-32h-32zM144 272h32v-32h-32zM208 272h32v-32h-32zM80 368h32v-32h-32zM144 368h32v-32h-32zM208 368h32v-32h-32zM80 464h32v-32h-32zM144 464h32v-32h-32zM208 464h32v-32h-32zM983.168 171.392c16.208 31.728 24.832 66.8 24.832 102.848 0 53.968-19.344 106.256-54.464 147.232l-137.536 160.432v53.248l2.688 4.032c19.168 28.768 29.312 62.24 29.312 96.816v6.624l-4.688 4.688c-3.744 3.76-39.568 36.688-139.312 36.688h-16v-16c0-5.408 0.16-10.832 0.48-16.224-26.816-1.184-50.688-16.416-62.784-40.608l-3.584-7.168 33.888-67.776v-54.304l-32-37.328v76.688l-64 12v150.72h-32v-144.72l-32 6v74.72h-32v-68.72l-32 6v156l-96 18v112.72h-32v-106.72l-32 6v68.72h-32v-62.72l-96 18v-318l-32-6v80.72h-32v-86.72l-64-12v-573.28h795.248c26.576 0 52.416 5.312 76.816 15.776 54.192 23.216 94.528 69.008 110.704 125.664l7.536 26.368c1.12 3.936 1.696 8 1.696 12.112 0 17.392-10.192 32.304-24.832 39.472zM976 274.224c0-35.776-9.856-70.464-28.32-100.816-11.072-3.216-21.168-9.408-28.736-18.48l-28.864-34.64c-21.328-25.6-52.688-40.288-86.032-40.288h-106.064c-5.504 0-9.984 4.48-9.984 9.984 0 4.912 3.52 9.040 8.336 9.856l42.72 7.12c26.032 4.336 44.944 26.64 44.944 53.040 0 26.464-21.536 48-48 48h-48c-52.768 0-105.008-16.88-148.032-47.376l-7.824 0.976c-23.584 33.008-36.144 71.76-36.144 112.64 0 46.336 16.608 91.216 46.752 126.4l136.608 159.36h113.296l136.608-159.36c30.128-35.184 46.736-80.080 46.736-126.416zM784 624v-32h-96v32zM815.792 728.224c-1.392-25.456-9.52-49.952-23.728-71.28l-0.624-0.944h-45.408c-14.576 29.808-23.344 62.512-25.488 95.664 56.032-2.416 84.672-16.688 95.248-23.44zM691.776 720h0.336c3.744-21.968 10.016-43.504 18.688-64h-28.912l-23.632 47.264c7.824 10.464 20.096 16.736 33.52 16.736zM592 507.248l-37.072-43.248h-26.928v-31.424l-9.536-11.12c-13.92-16.224-25.232-34.288-33.968-53.456h-20.496v-32h8.704c-5.68-19.968-8.704-40.72-8.704-61.776 0-38.128 9.344-74.688 27.152-107.504l-123.152 15.408v454.592l224-42zM176 828.72l224-42v-123.44l-64 12v-489.152l-32 4v389.152l-128-24zM272 540.72v-346.592l-224 28v276.592zM48 189.872l384-48v-157.872h-384zM464-16v153.872l64-8v-145.872zM975.536 128.624l-7.552-26.384c-13.52-47.344-47.232-85.648-92.528-105.040-20.4-8.768-42-13.2-64.208-13.2h-251.248v151.824c37.344 25.952 82.48 40.176 128 40.176h48c8.832 0 16-7.184 16-16 0-10.688-7.664-19.712-18.192-21.472l-42.72-7.12c-20.32-3.392-35.088-20.816-35.088-41.424 0-23.152 18.832-41.984 41.984-41.984h106.064c42.864 0 83.184 18.88 110.624 51.808l28.848 34.624c5.072 6.080 12.512 9.568 20.416 9.568 6.656 0 12.064-5.408 12.064-12.064 0-1.136-0.16-2.256-0.464-3.312zM400 368h32v-32h-32zM400 272h32v-32h-32zM464 464h32v-32h-32zM400 464h32v-32h-32zM528 560h32v-32h-32zM464 560h32v-32h-32zM400 560h32v-32h-32zM208 656h32v-32h-32zM336 752h32v-32h-32zM272 752h32v-32h-32zM208 752h32v-32h-32zM272 656h32v-32h-32z" />
<glyph unicode="&#xe90b;" glyph-name="government" d="M144 208h32v-32h-32zM208 208h32v-32h-32zM80 208h32v-32h-32zM336 560h32v-64h-32zM656 560h32v-64h-32zM864 912c-74 0-135.072-56.112-143.056-128h-52.368c-26.88 52.4-79.168 89.616-140.576 95.184v64.816h-32v-64.816c-61.408-5.568-113.696-42.784-140.576-95.184h-259.424c-44.112 0-80-35.888-80-80v-512c0-44.112 35.888-80 80-80h272v-34.448l-55.888-9.312c-23.248-3.888-40.112-23.792-40.112-47.344v-68.896h480v68.896c0 23.568-16.864 43.472-40.112 47.344l-55.888 9.312v34.448h272c44.112 0 80 35.888 80 80v576c0 79.392-64.592 144-144 144zM864 880c61.744 0 112-50.24 112-112s-50.256-112-112-112-112 50.24-112 112 50.256 112 112 112zM752 272h-32v64h32zM688 368v-96h-32v128h58.080l-36 32h137.92v-160h-32v96zM304 272h-32v64h32zM240 368v-96h-32v160h137.92l-36-32h58.080v-128h-32v96zM512.064 846.944c11.2-5.072 43.072-25.552 47.408-94.944h-94.944c4.32 69.056 36.16 89.728 47.536 94.944zM655.056 720c0.592-5.264 0.944-10.592 0.944-16v-80h-32v64h-96v-64h-32v64h-96v-64h-32v80c0 5.408 0.352 10.736 0.944 16zM720 464h-77.92l-91.488 81.328c-21.312 18.944-55.888 18.928-77.168 0l-91.504-81.328h-77.92v128h416zM394.080 432l100.608 89.408c9.536 8.496 25.072 8.512 34.64 0l100.592-89.408zM464 624h-32v32h32zM592 624h-32v32h32zM336 624h-64v-160h-96v-192h-64v416h224zM400 400h32v-128h-32zM464 400h96v-128h-96zM592 400h32v-128h-32zM752 464v160h-64v64h56.352c25.872-38.56 69.84-64 119.648-64 16.848 0 32.96 3.056 48 8.4v-360.4h-64v192zM720.944 752c1.232-11.104 3.84-21.792 7.456-32h-41.216c-0.992 11.008-3.072 21.68-6.016 32zM647.6 752h-56.192c-2.16 38.528-11.808 65.776-23.648 84.752 37.152-15.664 66.272-46.544 79.84-84.752zM456.256 836.752c-11.856-18.992-21.488-46.24-23.648-84.752h-56.192c13.552 38.208 42.672 69.088 79.84 84.752zM720 20.896v-36.896h-416v36.896c0 7.856 5.632 14.496 13.36 15.776l54.304 9.056c7.2-17.424 24.336-29.728 44.336-29.728h192c20 0 37.136 12.304 44.336 29.728l54.304-9.056c7.728-1.296 13.36-7.936 13.36-15.776zM624 64c0-8.816-7.168-16-16-16h-192c-8.832 0-16 7.184-16 16v48h224zM976 192c0-26.464-21.536-48-48-48h-832c-26.464 0-48 21.536-48 48v512c0 26.464 21.536 48 48 48h246.816c-2.928-10.32-5.008-21.008-6.016-32h-224.8c-17.648 0-32-14.352-32-32v-416c0-17.648 14.352-32 32-32h800c17.648 0 32 14.352 32 32v376.352c12.096 8.112 22.864 18.032 32 29.344zM923.312 804.688l-22.624 22.624-68.688-68.688-20.688 20.688-22.624-22.624 43.312-43.312z" />
<glyph unicode="&#xe90c;" glyph-name="phone-call" d="M985.114 158.88l-200.646 200.644c-23.952 23.95-62.916 23.95-86.87 0l-52.176-52.176c-16.348-16.348-21.516-39.69-15.546-60.482l-19.686-19.686c-0.006-0.006-0.010-0.010-0.016-0.016-13.98-13.996-101.046 7.482-206.29 112.726-105.228 105.226-126.712 192.278-112.732 206.284 0 0.004 0.004 0.004 0.004 0.004l19.704 19.702c5.562-1.598 11.302-2.414 17.046-2.414 15.73 0 31.458 5.986 43.436 17.96l52.176 52.176c23.95 23.95 23.95 62.916 0 86.868l-200.646 200.648c-11.6 11.6-27.026 17.988-43.432 17.988-16.41 0-31.83-6.392-43.432-17.988l-52.18-52.18c-16.348-16.348-21.516-39.692-15.546-60.482 0 0-16.688-16.848-17.518-17.912-55.506-61.698-65.92-158.836-29.122-274.974 36.034-113.714 113.714-234.176 218.734-339.19 105.016-105.016 225.478-182.696 339.192-218.734 45.68-14.474 88.414-21.646 127.22-21.646 63.626 0 116.674 19.296 154.7 57.32l10.948 10.948c5.48-1.576 11.204-2.426 17.064-2.426 16.41 0 31.834 6.392 43.432 17.988l52.18 52.18c23.95 23.95 23.95 62.918 0.002 86.87zM179.44 877.686l200.648-200.65-52.148-52.204c0 0-0.010 0.010-0.028 0.028l-200.65 200.646 52.178 52.18zM818.058 36.754c-0.004-0.004-0.006-0.006-0.010-0.010-44.188-44.182-122.292-51.48-219.922-20.54-104.504 33.116-216.13 105.428-314.312 203.612-98.186 98.184-170.498 209.806-203.612 314.312-30.94 97.634-23.642 175.74 20.55 219.934l5.544 5.544 155.714-155.712-14.282-14.282c-0.010-0.010-0.018-0.022-0.030-0.034-59.17-59.244 11.926-192.294 112.756-293.124 75.468-75.468 168.986-134.28 236.102-134.28 22.568 0 42.152 6.65 57.056 21.556 0.006 0.006 0.010 0.010 0.016 0.016l14.266 14.266 155.714-155.712-5.55-5.546zM889.504 63.264l-200.648 200.648 52.176 52.176 200.648-200.644c0 0-52.158-52.198-52.176-52.18zM777.636 713.632c-58.418 58.418-136.084 90.588-218.688 90.586-16.962 0-30.712-13.75-30.712-30.712s13.752-30.712 30.712-30.712c66.2 0.004 128.438-25.78 175.256-72.594 46.812-46.812 72.59-109.050 72.588-175.248 0-16.962 13.75-30.716 30.712-30.716 16.96 0 30.712 13.75 30.712 30.708 0.002 82.608-32.17 160.27-90.58 218.688zM887.79 823.786c-87.846 87.842-204.634 136.218-328.854 136.214-16.962 0-30.712-13.752-30.712-30.712 0-16.962 13.752-30.712 30.712-30.712 107.814 0.004 209.176-41.984 285.418-118.222 76.236-76.236 118.222-177.598 118.22-285.412 0-16.962 13.75-30.712 30.712-30.712 16.96 0 30.712 13.75 30.712 30.708 0.004 124.224-48.372 241.008-136.208 328.848zM667.474 603.48c-29.412 29.412-66.93 44.954-108.512 44.954 0 0-0.010 0-0.012 0-16.962-0.004-30.712-13.752-30.708-30.716 0.004-16.962 13.756-30.712 30.716-30.708 0.004 0 0.006 0 0.010 0 25.288 0 47.186-9.072 65.078-26.962 17.638-17.64 26.962-40.15 26.958-65.088-0.004-16.962 13.75-30.712 30.708-30.716h0.004c16.962 0 30.708 13.75 30.712 30.708 0.002 41.584-15.54 79.112-44.954 108.528z" />
<glyph unicode="&#xe90d;" glyph-name="right-arrow" d="M1012.268 476.314c-0.012 0.012-0.022 0.026-0.036 0.038l-209.008 208c-15.658 15.582-40.984 15.524-56.57-0.136-15.584-15.658-15.524-40.984 0.134-56.568l140.328-139.648h-847.116c-22.092 0-40-17.908-40-40s17.908-40 40-40h847.114l-140.324-139.648c-15.658-15.584-15.718-40.91-0.134-56.568 15.586-15.662 40.914-15.716 56.57-0.136l209.008 208c0.012 0.012 0.022 0.026 0.036 0.038 15.666 15.636 15.616 41.044-0.002 56.628z" />
<glyph unicode="&#xe90e;" glyph-name="left-arrow" d="M11.732 419.686c0.012-0.012 0.022-0.026 0.036-0.038l209.008-208c15.658-15.582 40.984-15.524 56.57 0.136 15.584 15.658 15.524 40.984-0.134 56.568l-140.328 139.648h847.116c22.092 0 40 17.908 40 40s-17.908 40-40 40h-847.114l140.324 139.648c15.658 15.584 15.718 40.91 0.134 56.568-15.586 15.662-40.914 15.716-56.57 0.136l-209.008-208c-0.012-0.012-0.022-0.026-0.036-0.038-15.666-15.636-15.616-41.044 0.002-56.628z" />
<glyph unicode="&#xe90f;" glyph-name="up-arrow" d="M483.686 948.268c-0.012-0.012-0.026-0.022-0.038-0.036l-208-209.008c-15.582-15.658-15.524-40.984 0.136-56.57 15.658-15.584 40.984-15.524 56.568 0.134l139.648 140.328v-847.116c0-22.092 17.908-40 40-40s40 17.908 40 40v847.114l139.648-140.324c15.584-15.658 40.91-15.718 56.568-0.134 15.662 15.586 15.716 40.914 0.136 56.57l-208 209.008c-0.012 0.012-0.026 0.022-0.038 0.036-15.636 15.666-41.044 15.616-56.628-0.002z" />
<glyph unicode="&#xe910;" glyph-name="down-arrow" d="M540.314-52.268c0.012 0.012 0.026 0.022 0.038 0.036l208 209.008c15.582 15.658 15.524 40.984-0.136 56.57-15.658 15.584-40.984 15.524-56.568-0.134l-139.648-140.328v847.116c0 22.092-17.908 40-40 40s-40-17.908-40-40v-847.114l-139.648 140.324c-15.584 15.658-40.91 15.718-56.568 0.134-15.662-15.586-15.716-40.914-0.136-56.57l208-209.008c0.012-0.012 0.026-0.022 0.038-0.036 15.636-15.666 41.044-15.616 56.628 0.002z" />
<glyph unicode="&#xe911;" glyph-name="tuscany" d="M151.022 342.97v89.772c28.246 7.23 52.52 24.442 68.888 47.618v-117.372c33.41 7.080 67.856 10.74 102.814 10.74 104.734 0 209.274-33.228 293.082-97.266 41.762 9.434 85.282 14.478 129.608 14.912v282.548l-274.454 135.336-229.96-124.696c-4.91 84.446-27.3 191.538-70.646 267.396l-26.64 46.618h-45.382l-26.64-46.616c-49.524-86.67-71.692-214.11-71.692-301.962 0-56.38 38.754-103.874 91.022-117.254v-116.882c19.306 10.38 39.356 19.428 60 27.108zM427.33 461.578h-60v60h60zM597.998 461.578h-60v60h60zM914.256 269.842v92.928c40.012 12.74 69.080 50.246 69.080 94.424 0 67.63-17.118 165.83-55.362 232.754l-22.298 39.024h-42.838l-22.3-39.024c-38.244-66.926-55.362-165.124-55.362-232.754 0-44.178 29.068-81.682 69.080-94.424v-79.734c20.4-3.388 40.432-7.788 60-13.194zM1024 157.358l-10.692 6.304c-75.188 44.328-165.666 67.758-261.654 67.758-26.868 0-53.39-1.874-79.318-5.542 49.198-51.918 80.66-110.364 105.012-181.95 7.828-23.012 13.402-46.502 13.402-46.502h233.25zM574.13 232.704c-72.548 53.006-159.482 81.024-251.404 81.024-122.912 0-244.226-50.228-322.726-147.518v-164.466c19.874 55.992 55.026 106.328 101.984 145.076 61.228 50.524 139.17 78.348 219.464 78.348 80.296 0 158.238-27.824 219.466-78.348 48.162-39.742 83.9-91.676 103.478-149.396h83.916l-8.614 29.886c-23.316 80.902-75.012 153.846-145.564 205.394zM321.45 165.17c-66.394 0-130.772-22.952-181.278-64.628-34.076-28.118-60.562-63.612-77.48-103.118h517.516c-16.918 39.506-43.404 75-77.48 103.118-50.506 41.676-114.886 64.628-181.278 64.628z" />
<glyph unicode="&#xe912;" glyph-name="police-badge" d="M895.466 672.932c0 42.2 40.074 91.804 55.478 107.32 11.716 11.716 11.716 30.71 0 42.426l-128.532 128.534c-10.812 10.814-28.032 11.764-39.966 2.202l-18.702-14.976c-68.976-55.168-168.076-49.674-230.514 12.772-5.624 5.628-13.274 8.79-21.23 8.79-7.958 0-15.59-3.162-21.214-8.79-62.438-62.45-161.54-67.94-230.498-12.786-11.47 9.186-18.756 15.008-18.756 15.008-11.94 9.542-29.142 8.584-39.944-2.222l-128.534-128.53c-11.686-11.686-11.682-30.66-0.038-42.388 15.442-15.552 55.516-65.158 55.516-107.358 0-74.556-14.566-110.972-29.986-149.526-16.854-42.132-34.28-85.698-34.28-171.808 0-177.842 149.756-245.586 270.086-300.022 67.334-30.46 130.932-59.23 150.814-98.994 5.082-10.164 15.47-16.584 26.834-16.584s21.752 6.42 26.832 16.584c19.882 39.764 83.48 68.534 150.814 98.994 120.33 54.436 270.086 122.18 270.086 300.022 0 86.11-17.426 129.676-34.28 171.808-15.418 38.554-29.986 74.968-29.986 149.524zM746.868 528.156l-95.662-93.25 22.574-131.674c1.93-11.254-2.698-22.628-11.936-29.34-9.236-6.71-21.482-7.598-31.592-2.284l-118.252 62.166-118.254-62.166c-0.386-0.204-16.034-9.022-31.594 2.286-9.238 6.712-13.864 18.088-11.934 29.342l22.592 131.672-95.662 93.248c-8.178 7.97-11.122 19.892-7.592 30.752 3.528 10.86 12.916 18.776 24.216 20.418l132.206 19.212 59.12 119.802c5.052 10.24 15.482 16.724 26.9 16.724 11.42 0 21.85-6.482 26.904-16.722l59.132-119.806 132.208-19.212c11.3-1.642 20.69-9.558 24.216-20.418 3.53-10.858 0.586-22.78-7.59-30.75zM551.21 557.84l-39.208 79.438-39.2-79.434c-4.37-8.856-12.816-14.992-22.588-16.414l-87.66-12.74 63.428-61.828c7.072-6.892 10.298-16.824 8.628-26.556l-14.978-87.304 78.406 41.218c4.37 2.296 9.164 3.446 13.958 3.446s9.59-1.148 13.96-3.446l78.414-41.222-14.968 87.312c-1.668 9.732 1.558 19.66 8.626 26.552l63.43 61.828-87.662 12.74c-9.768 1.42-18.214 7.558-22.586 16.41z" />
<glyph unicode="&#xe913;" glyph-name="buildings" d="M642 930c0 16.568-13.432 30-30 30h-200c-16.568 0-30-13.432-30-30v-50h260zM994-4h-12v290c0 11.364-6.42 21.752-16.584 26.832l-73.416 36.708v-353.54h-60v450c0 10.032-5.012 19.398-13.36 24.96l-180 120c-9.204 6.138-21.042 6.71-30.796 1.49s-15.844-15.386-15.844-26.45v-570h-60v570c0 33.254 18.214 63.66 47.534 79.352 13.016 6.966 27.7 10.648 42.464 10.648 17.834 0 35.102-5.228 49.936-15.124l30.066-20.044v169.168c0 16.568-13.432 30-30 30h-320c-16.568 0-30-13.432-30-30v-34h50c49.626 0 90-40.374 90-90v-670h-60v670c0 16.568-13.432 30-30 30h-180c-16.568 0-30-13.432-30-30v-400h70c49.626 0 90-40.374 90-90v-180h-60v180c0 16.568-13.432 30-30 30h-160c-16.568 0-30-13.432-30-30v-180h-12c-16.568 0-30-13.432-30-30s13.432-30 30-30h964c16.568 0 30 13.432 30 30s-13.432 30-30 30zM682 346c0 16.568 13.432 30 30 30s30-13.432 30-30v-60c0-16.568-13.432-30-30-30s-30 13.432-30 30zM682 166c0 16.568 13.432 30 30 30s30-13.432 30-30v-60c0-16.568-13.432-30-30-30s-30 13.432-30 30zM312 346c0-16.568-13.432-30-30-30s-30 13.432-30 30v60c0 16.568 13.432 30 30 30s30-13.432 30-30zM312 526c0-16.568-13.432-30-30-30s-30 13.432-30 30v60c0 16.568 13.432 30 30 30s30-13.432 30-30zM122 66c0 16.568 13.432 30 30 30s30-13.432 30-30v-70h-60z" />
<glyph unicode="&#xe914;" glyph-name="ferris" d="M888.222 544.317c-16.345 0-31.508-5.12-44.112-13.785-8.665 45.096-26.387 87.828-52.381 125.834 15.163 2.757 29.538 9.846 41.157 21.465 30.326 30.326 30.326 79.556 0 109.882-30.327 30.13-79.558 30.13-109.686 0-11.422-11.421-18.905-25.797-21.465-41.353-38.006 25.994-80.738 43.718-126.031 52.185 8.862 12.602 13.982 27.963 13.982 44.505 0 42.732-34.856 77.587-77.588 77.587-42.929 0-77.785-34.855-77.785-77.587 0-16.542 5.12-31.903 13.982-44.505-45.292-8.468-88.024-26.191-126.031-52.185-2.56 15.556-10.042 29.933-21.464 41.353-14.572 14.573-34.067 22.647-54.745 22.647-20.874 0-40.369-8.073-54.941-22.647-14.769-14.769-22.843-34.264-22.843-54.941s8.073-40.369 22.843-54.941c11.619-11.619 25.994-18.708 41.157-21.465-26.191-38.006-43.915-80.738-52.185-126.030-12.406 8.861-27.767 13.981-44.308 13.981-42.732 0-77.588-34.855-77.588-77.588 0-42.929 34.856-77.785 77.588-77.785 16.541 0 31.901 5.12 44.308 14.179 8.468-45.095 26.387-88.025 52.381-126.031-38.253-6.953-64.196-39.655-64.196-76.406 0-41.757 33.664-77.588 77.784-77.588 20.678 0 40.173 8.075 54.745 22.647 11.618 11.422 19.101 25.994 21.661 41.748 11.816-8.27 24.222-15.359 37.022-21.858l-67.671-150.887h-100.94c-10.875 0-19.692-8.817-19.692-19.692s8.817-19.692 19.692-19.692c23.921 0.004-86.379-0.016 233.202 0.043 8.073 0 15.162 4.727 18.314 12.21l69.71 170.338 69.514-170.338c3.15-7.483 10.239-12.21 18.314-12.21 23.855-0.004-86.397 0.016 233.206-0.043 10.875 0 19.692 8.817 19.692 19.692s-8.817 19.692-19.692 19.692h-100.951l-67.665 150.69c12.8 6.499 25.404 13.785 37.219 21.858 5.75-34.939 36.386-64.197 76.209-64.197 43.161 0 77.588 34.617 77.588 77.588 0 38.694-27.916 70.314-64 76.406 25.994 38.006 43.913 80.739 52.382 126.031 12.602-9.059 27.963-14.179 44.308-14.179 42.732 0 77.588 34.856 77.588 77.785 0 42.733-34.856 77.588-77.588 77.588zM809.979 482.767h-131.471c-2.986 30.893-14.626 60.222-33.625 85.346l93.275 93.268c43.436-50.284 68.44-112.654 71.821-178.614zM710.449 689.364l-93.053-93.046c-24.553 19.845-54.441 32.371-85.697 36.109v131.88c66.501-4.319 128.799-30.468 178.75-74.944zM492.314 764.3v-131.889c-31.316-3.754-61.18-16.269-85.708-36.090l-93.048 93.048c49.915 44.441 112.169 70.587 178.756 74.931zM285.825 661.41l93.337-93.337c-18.917-24.975-30.5-54.388-33.474-85.306h-131.645c3.447 66.294 28.429 128.577 71.782 178.643zM214.529 443.382h132.047c4.048-29.744 16.281-57.539 35.662-81.293l-94.215-92.368c-42.802 48.632-68.507 109.273-73.494 173.661zM375.63 201.475c-21.356 10.987-41.314 24.5-59.706 40.447l94.34 92.475c6.157-4.831 12.606-9.050 19.234-12.792zM648.566 201.278l-54.058 120.341c6.788 3.844 13.375 8.107 19.617 13.029l95.091-91.869c-18.526-16.216-38.817-30.103-60.65-41.501zM736.778 270.913l-94.662 91.456c19.111 23.392 31.406 51.303 35.399 81.013h131.938c-4.986-64.032-30.209-124.144-72.674-172.469z" />
<glyph unicode="&#xe915;" glyph-name="goals" d="M833.692 636.724l-300 314c-5.66 5.924-13.498 9.276-21.692 9.276s-16.032-3.352-21.692-9.276l-300-314c-8.296-8.684-10.616-21.478-5.892-32.52 4.722-11.042 15.574-18.204 27.584-18.204h81.72l-31.72-128.864v-101.136h95.142c-9.696 21.364-15.142 45.052-15.142 70 0 93.738 76.262 170 170 170s170-76.262 170-170c0-24.948-5.446-48.636-15.142-70h95.142v101.136l-31.72 128.864h81.72c12.010 0 22.862 7.162 27.584 18.204 4.722 11.044 2.404 23.838-5.892 32.52zM622 426c0-60.751-49.249-110-110-110s-110 49.249-110 110c0 60.751 49.249 110 110 110s110-49.249 110-110zM880.184 513.972c-32.634-0.968-58.184-28.6-58.184-61.248v-96.724c0-33.138-26.862-60-60-60h-140.62c-29.588-24.934-67.75-40-109.38-40s-79.792 15.066-109.38 40h-140.62c-33.138 0-60 26.862-60 60v98c0 33.688-27.908 60.98-61.816 59.974-32.634-0.97-58.184-28.602-58.184-61.25v-94.724c0-100.516 81.484-182 182-182h68v-240h360v240h68c100.516 0 182 81.484 182 182v96c0 33.688-27.908 60.98-61.816 59.972zM752 116v-180h100c9.218 0 17.926 4.238 23.614 11.496 5.686 7.256 7.72 16.724 5.518 25.676l-38.718 157.288c-25.736-9.352-53.488-14.46-82.414-14.46zM264 116c-28.926 0-56.678 5.108-82.414 14.458l-38.718-157.288c-2.204-8.952-0.168-18.42 5.518-25.676 5.688-7.256 14.396-11.494 23.614-11.494h100v180z" />
<glyph unicode="&#xe916;" glyph-name="sun-day-weather-symbol" d="M128 480h-96c-17.664 0-32-14.336-32-32s14.336-32 32-32h96c17.664 0 32 14.336 32 32s-14.336 32-32 32zM512 800c17.664 0 32 14.336 32 32v96c0 17.664-14.336 32-32 32s-32-14.336-32-32v-96c0-17.664 14.336-32 32-32zM819.873 711.041l67.233 67.233c12.383 12.383 12.383 32.448 0 44.832s-32.45 12.383-44.833 0l-67.233-67.233c-12.383-12.383-12.383-32.448 0-44.832 12.385-12.385 32.45-12.385 44.833 0zM237.12 217.92l-67.233-67.233c-12.383-12.383-12.383-32.448 0-44.832s32.448-12.383 44.832 0l67.233 67.233c12.383 12.383 12.383 32.448 0 44.832s-32.447 12.385-44.832 0zM217.856 696.896c12.512-12.512 32.768-12.512 45.247 0 12.48 12.512 12.48 32.768 0 45.247l-67.87 67.905c-12.512 12.512-32.768 12.512-45.248 0-12.512-12.512-12.512-32.768 0-45.248l67.872-67.904zM512 96c-17.664 0-32-14.336-32-32v-96c0-17.664 14.336-32 32-32s32 14.336 32 32v96c0 17.664-14.336 32-32 32zM806.144 199.104c-12.512 12.512-32.768 12.512-45.248 0-12.512-12.514-12.512-32.768 0-45.248l67.872-67.872c12.512-12.512 32.768-12.512 45.248 0 12.48 12.514 12.512 32.768 0 45.248l-67.872 67.872zM992 480h-96c-17.664 0-32-14.336-32-32s14.336-32 32-32h96c17.664 0 32 14.336 32 32s-14.336 32-32 32zM512 736.192c-159.168 0-288.192-129.024-288.192-288.192s129.024-288.192 288.192-288.192 288.192 129.024 288.192 288.192-129.024 288.192-288.192 288.192zM512 224.064c-123.68 0-223.936 100.257-223.936 223.936s100.257 223.936 223.936 223.936 223.936-100.257 223.936-223.936-100.257-223.936-223.936-223.936z" />
<glyph unicode="&#xe917;" glyph-name="clock" d="M512 960c-282.312 0-512-229.688-512-512s229.688-512 512-512 512 229.688 512 512-229.688 512-512 512zM512 0c-247.032 0-448 200.968-448 448s200.968 448 448 448 448-200.968 448-448-200.968-448-448-448zM544 767.999h-64v-333.249l201.375-201.375 45.25 45.25-182.625 182.625z" />
<glyph unicode="&#xe918;" glyph-name="down-right" d="M766.624 89.322c-0.524 0.004-1.188 0.018-1.782 0.044h-375.562c-19.894 0-36.078 16.184-36.078 36.076v67.93c0.002 9.64 3.756 18.7 10.568 25.512 6.814 6.814 15.874 10.566 25.51 10.566l242.214-0.002-491.602 491.606c-6.814 6.814-10.566 15.874-10.568 25.508 0 9.638 3.752 18.698 10.568 25.512l48.030 48.036c6.816 6.816 15.876 10.568 25.512 10.568 9.64 0 18.696-3.752 25.51-10.568l491.602-491.604 0.002 242.21c0 19.894 16.182 36.078 36.072 36.078h67.932c9.638 0 18.7-3.752 25.514-10.566 6.81-6.812 10.562-15.87 10.566-25.508l-0.002-375.596c0.028-0.582 0.042-1.166 0.042-1.754l-0.002-67.932c0-13.308-7.29-25.492-19.024-31.796-5.212-2.818-11.134-4.32-17.094-4.32zM389.28 201.452c-2.158 0-4.186-0.84-5.712-2.368-1.526-1.524-2.366-3.554-2.366-5.714v-67.926c0-4.454 3.624-8.076 8.078-8.076h375.948c0.294 0 0.592-0.010 0.886-0.028 0.18-0.012 0.362-0.018 0.542-0.018l67.896 0.002c1.32 0 2.636 0.334 3.806 0.966 2.674 1.438 4.31 4.168 4.31 7.15l0.002 67.932c0 0.182-0.008 0.364-0.018 0.544-0.018 0.278-0.026 0.556-0.026 0.836l0.002 375.964c0 2.158-0.842 4.188-2.368 5.714-1.524 1.524-3.552 2.364-5.712 2.364h-67.928c-4.454 0-8.076-3.624-8.076-8.078l-0.002-276.008c0-5.662-3.41-10.768-8.642-12.934-5.234-2.17-11.252-0.968-15.258 3.034l-515.496 515.504c-1.526 1.526-3.552 2.366-5.704 2.366-2.166 0-4.194-0.84-5.72-2.366l-48.030-48.036c-1.528-1.528-2.368-3.554-2.368-5.71 0-2.158 0.84-4.186 2.366-5.712l515.502-515.504c4.004-4.006 5.202-10.028 3.034-15.258-2.166-5.232-7.272-8.642-12.934-8.642z" />
<glyph unicode="&#xe919;" glyph-name="accept" d="M975 667c-41.8 88.6-108 163-191.4 215.2-116 72.4-253.4 95.4-386.6 64.6-133.2-30.6-246.6-111.4-319-227.4-72.6-116-95.6-253.2-64.8-386.6 30.8-133.2 111.6-246.6 227.4-319 81.6-51 175.2-78 271-78h6.2c95.4 1.2 188.2 28.8 268.6 79.6 23.4 14.8 30.2 45.6 15.4 69s-45.6 30.2-69 15.4c-64.6-41-139.4-63.2-216.2-64.2-78.8-1-155.8 20.8-223 62.6-93.4 58.4-158.4 149.6-183 256.8s-6.2 217.6 52.2 311c120.4 192.6 375.2 251.4 567.8 131 67.2-42 120.4-101.8 154-173 32.8-69.4 45.6-146.4 37-222.4-3-27.4 16.6-52.2 44.2-55.2 27.4-3 52.2 16.6 55.2 44.2 10.6 94.6-5.4 190.2-46 276.4zM677.4 621.6l-241.2-241.2-89.4 89.4c-19.6 19.6-51.2 19.6-70.8 0s-19.6-51.2 0-70.8l124.8-124.8c9.8-9.8 22.6-14.6 35.4-14.6s25.6 4.8 35.4 14.6l276.4 276.6c19.6 19.6 19.6 51.2 0 70.8-19.6 19.4-51.2 19.4-70.6 0z" />
<glyph unicode="&#xe91a;" glyph-name="history" d="M876.8 230.4c1.998 2.641 3.2 5.98 3.2 9.6 0 8.837-7.163 16-16 16v0h-177.6c-7.754 36.754-39.894 63.952-78.395 64h-48.005v38.584c58.651 12.102 109.733 38.886 150.938 76.343l-0.26-0.233 30-30 22.628 22.628-30.018 30.016c8.044 8.845 15.809 18.428 23.013 28.443l0.655 0.957-26.070 18.554c-6.775-9.455-13.42-17.697-20.488-25.55l0.232 0.262-22.754 22.754c39.749 44.875 64.021 104.251 64.021 169.297 0 141.304-114.55 255.854-255.854 255.854-65.048 0-124.426-24.274-169.57-64.259l0.269 0.234-22.754 22.756c7.591 6.836 15.834 13.48 24.43 19.665l0.86 0.589-18.556 26.072c-10.967-7.86-20.548-15.625-29.652-23.905l0.262 0.235-30.018 30.018-22.628-22.628 30-30c-113.606-125.456-109.934-319.986 11.038-440.96 50.476-50.568 117.851-84.253 192.931-91.862l1.345-0.11v-33.754h-48c-44.162-0.051-79.949-35.838-80-79.995v-0.005c0-8.837 7.163-16 16-16v0h57.838c-6.117-14.171-9.675-30.67-9.675-48s3.558-33.829 9.983-48.807l-0.308 0.807h-188.076c-8.561 13.644-13.64 30.229-13.64 48s5.078 34.356 13.863 48.382l-0.223-0.382h82.238v32h-186.666c-5.217 0-9.85-2.496-12.771-6.36l-0.029-0.040c-15.222-20.278-24.377-45.87-24.377-73.6s9.154-53.322 24.606-73.919l-0.229 0.319c2.95-3.904 7.583-6.4 12.8-6.4v0h36.504c-6.127-14.151-9.691-30.631-9.691-47.942 0-27.751 9.158-53.362 24.617-73.977l-0.23 0.32c2.95-3.904 7.583-6.4 12.8-6.4v0h746.666c8.837 0 16 7.163 16 16 0 3.62-1.202 6.959-3.229 9.64l0.029-0.040c-11.251 14.988-18.016 33.904-18.016 54.4s6.766 39.412 18.186 54.636l-0.169-0.236c1.998 2.641 3.2 5.98 3.2 9.6 0 8.837-7.163 16-16 16h-55.572c-8.563 13.638-13.642 30.217-13.642 47.982 0 20.502 6.765 39.423 18.184 54.655l-0.17-0.237zM836.498 224c-4.026-9.299-7.043-20.096-8.533-31.375l-0.067-0.625h-282.358c2.165 12.067 6.433 22.823 12.442 32.374l-0.22-0.374zM585.838 0h-76.076c-8.561 13.644-13.64 30.229-13.64 48s5.078 34.356 13.863 48.382l-0.223-0.382h76.076c-6.117-14.171-9.675-30.67-9.675-48s3.558-33.829 9.983-48.807l-0.308 0.807zM285.762 96h188.076c-6.117-14.171-9.675-30.67-9.675-48s3.558-33.829 9.983-48.807l-0.308 0.807h-188.076c-8.561 13.644-13.64 30.229-13.64 48s5.078 34.356 13.863 48.382l-0.223-0.382zM720 672c-0.003-11.292-0.837-22.386-2.446-33.228l0.15 1.228h-40.86l-36.844 24.562v55.438c-0.001 3.040-0.849 5.882-2.32 8.303l0.040-0.071-45.72 76.2v69.926c76.241-36.852 127.916-113.561 128-202.347v-0.011zM560 886.668v-86.668c0.001-3.040 0.849-5.882 2.32-8.303l-0.040 0.071 45.72-76.2v-59.568c0-5.528 2.804-10.402 7.067-13.276l0.057-0.036 48-32c2.494-1.684 5.568-2.688 8.876-2.688h38.668c-28.443-93.321-113.768-160.045-214.676-160.045-123.712 0-224 100.288-224 224 0 11.306 0.838 22.416 2.454 33.272l-0.15-1.226h33.212l12.97-51.88c1.797-7.016 8.064-12.12 15.522-12.12h48v-48c0-3.308 1.004-6.382 2.724-8.933l-0.036 0.057 29.312-43.968v-43.156c0-8.837 7.163-16 16-16v0h64c0.001 0 0.003 0 0.004 0 5.039 0 9.533 2.329 12.466 5.969l0.024 0.031 64 80c2.187 2.713 3.51 6.202 3.51 10 0 8.837-7.163 16-16 16-0.001 0-0.003 0-0.004 0h-32v64c0 8.837-7.163 16-16 16v0h-96v27.156l24.562 36.844h55.438c8.836 0 15.999 7.164 15.999 16 0 2.608-0.624 5.071-1.731 7.247l0.042-0.091-32 64c-2.685 5.285-8.082 8.844-14.31 8.844h-48v49.22c23.746 9.356 51.249 14.78 80.019 14.78 22.813 0 44.83-3.41 65.568-9.749l-1.587 0.417zM512 560h14.71l-38.4-48h-40.31v32c0 3.308-1.004 6.382-2.724 8.933l0.036-0.057-29.312 43.968v43.156h80v-64c0-8.837 7.163-16 16-16v0zM384 865.93v-49.93c0-8.837 7.163-16 16-16v0h54.112l16-32h-38.112c-5.528 0-10.402-2.804-13.276-7.067l-0.036-0.057-32-48c-1.684-2.494-2.688-5.568-2.688-8.876v0-32h-35.508l-12.97 51.88c-1.797 7.016-8.064 12.12-15.522 12.12h-38.668c17.109 55.743 53.681 101.172 101.612 129.356l1.056 0.574zM281.358 864.014l22.758-22.756c-39.804-44.89-64.114-104.307-64.114-169.402 0-141.304 114.55-255.854 255.854-255.854 65.095 0 124.512 24.31 169.668 64.346l-0.266-0.232 22.756-22.758c-112.94-101.154-287.166-97.498-395.66 11s-112.154 282.718-10.996 395.656zM496 352.15q16.024 0 32 1.6v-33.75h-32zM416 288h192c20.767-0.025 38.448-13.212 45.152-31.666l0.106-0.334h-282.516c6.81 18.788 24.491 31.975 45.255 32h0.003zM445.762 224h76.076c-6.117-14.171-9.675-30.67-9.675-48s3.558-33.829 9.983-48.807l-0.308 0.807h-76.076c-8.561 13.644-13.64 30.229-13.64 48s5.078 34.356 13.863 48.382l-0.223-0.382zM125.762 224h60.076c-6.117-14.171-9.675-30.67-9.675-48s3.558-33.829 9.983-48.807l-0.308 0.807h-60.084c-8.56 13.645-13.638 30.229-13.638 48s5.078 34.355 13.861 48.382l-0.223-0.382zM189.762 96h60.084c-6.117-14.171-9.675-30.67-9.675-48s3.558-33.829 9.983-48.807l-0.308 0.807h-60.092c-8.56 13.645-13.638 30.229-13.638 48s5.078 34.355 13.861 48.382l-0.223-0.382zM621.762 0c-5.789 9.176-10.057 19.933-12.14 31.45l-0.082 0.55h282.352c1.557-11.904 4.574-22.701 8.905-32.801l-0.305 0.801zM891.892 64h-282.352c2.165 12.067 6.433 22.823 12.442 32.374l-0.22-0.374h278.736c-4.027-9.299-7.047-20.096-8.538-31.375l-0.068-0.625zM557.762 128c-5.789 9.176-10.057 19.933-12.14 31.45l-0.082 0.55h282.352c1.557-11.904 4.574-22.701 8.905-32.801l-0.305 0.801z" />
<glyph unicode="&#xe91b;" glyph-name="newsletter" d="M405.934 326.492c58.484-58.484 153.648-58.484 212.132 0l195.934 195.934v437.574h-604v-437.574zM315 870h394v-60h-394zM315 750h394v-60h-394zM315 570v60h394v-60zM646.38 271.194c-38.786-32.348-86.578-48.538-134.38-48.538s-95.596 16.19-134.38 48.538l-335.194-335.194h939.148zM689.426 313l334.574-334.574v669.148zM874 582.426l107.574 107.574h-107.574zM334.574 313l-334.574 334.574v-669.148zM150 582.426v107.574h-107.574z" />
<glyph unicode="&#xe91c;" glyph-name="policy" d="M896 192v688c-0.031 26.497-21.503 47.969-47.997 48h-672.003c-26.497-0.031-47.969-21.503-48-47.997v-864.003c0.031-26.497 21.503-47.969 47.997-48h672.003c26.497 0.031 47.969 21.503 48 47.997v48.003h16c44.162 0.051 79.949 35.838 80 79.995v48.005zM160 880c0.010 8.832 7.168 15.99 15.999 16h672.001c8.832-0.010 15.99-7.168 16-15.999v-688.001h-608v-48c0-26.51-21.49-48-48-48s-48 21.49-48 48v0zM864 16c-0.010-8.832-7.168-15.99-15.999-16h-672.001c-8.832 0.010-15.99 7.168-16 15.999v64.045c13.167-10.015 29.838-16.044 47.918-16.044 0.029 0 0.057 0 0.086 0h655.995zM960 144c-0.031-26.497-21.503-47.969-47.997-48h-640.041c10.011 13.166 16.038 29.836 16.038 47.914 0 0.030 0 0.060 0 0.091v-0.005 16h672zM368 653.403v-109.403h-16v-96h320v96h-16v109.403l20.238 60.716-100.238 33.413v20.468c-0.039 29.649-20.197 54.579-47.552 61.873l-0.448 0.102v34.025h-32v-34.025c-27.803-7.396-47.961-32.326-48-61.97v-20.473l-100.238-33.413zM400 640h32v-96h-32zM528 544v96h32v-96zM496 544h-32v96h32zM640 480h-256v32h256zM592 544v96h32v-96zM480 768c0 17.673 14.327 32 32 32s32-14.327 32-32v0-9.801l-32 10.667-32-10.667zM512 735.135l123.762-41.254-7.294-21.881h-232.936l-7.294 21.881zM192 416h32v-32h-32zM256 416h576v-32h-576zM192 336h32v-32h-32zM256 336h576v-32h-576zM192 256h32v-32h-32zM256 256h576v-32h-576z" />
<glyph unicode="&#xe91d;" glyph-name="quote" d="M415.602 816h-385.602c-16.57 0-30-13.43-30-30v-385.602c0-16.57 13.43-30 30-30h162.797v-259.203c0-16.563 13.43-30 30-30h96.406c12.914 0 24.375 8.266 28.453 20.516l96.398 289.203c1.023 3.055 1.547 6.258 1.547 9.484v385.602c0 16.57-13.43 30-30 30zM994 816h-385.602c-16.57 0-30-13.43-30-30v-385.602c0-16.57 13.43-30 30-30h162.805v-259.203c0-16.563 13.43-30 30-30h96.398c12.914 0 24.375 8.266 28.461 20.516l96.398 289.203c1.016 3.055 1.539 6.258 1.539 9.484v385.602c0 16.57-13.43 30-30 30z" />
<glyph unicode="&#xe91e;" glyph-name="pdf-file" d="M916 670h-808c-49.626 0-90-40.374-90-90v-360c0-49.626 40.374-90 90-90h808c49.626 0 90 40.374 90 90v360c0 49.626-40.374 90-90 90zM255.482 353.324c-7.67 0-20.774-0.054-33.040-0.116v-69.194c0-16.568-13.432-30-30-30s-30 13.432-30 30l-0.442 227.89c-0.026 7.972 3.124 15.628 8.752 21.276s13.276 8.82 21.248 8.82h63.482c52.712 0 95.598-42.32 95.598-94.338s-42.886-94.338-95.598-94.338zM513.018 261.248c-17.868-0.312-62.562-0.482-64.456-0.49-0.038 0-0.076 0-0.114 0-7.916 0-15.514 3.128-21.134 8.708-5.648 5.606-8.836 13.226-8.866 21.184-0.002 0.8-0.448 221.292-0.448 221.292-0.014 7.966 3.138 15.612 8.766 21.25s13.268 8.808 21.234 8.808h62.66c71.384 0 119.344-56.512 119.344-140.622 0-80.012-49.2-138.946-116.986-140.13zM820.44 433.3c16.568 0 30-13.432 30-30s-13.432-30-30-30h-54.44v-85.3c0-16.568-13.432-30-30-30s-30 13.432-30 30v226.316c0 16.568 13.432 30 30 30h91.726c16.568 0 30-13.432 30-30s-13.432-30-30-30h-61.726v-51.016zM510.66 482h-32.606c0.046-27.080 0.21-135.028 0.294-161.086 12.484 0.080 25.852 0.19 33.622 0.326 40.090 0.7 58.036 40.754 58.036 80.138-0.002 18.914-4.28 80.622-59.346 80.622zM255.482 482h-33.392c0.036-13.35 0.070-27.552 0.070-34.338 0-7.93 0.056-21.684 0.12-34.456 12.312 0.062 25.464 0.118 33.204 0.118 19.296 0 35.598 15.724 35.598 34.338s-16.304 34.338-35.6 34.338zM884.91 730c-6.954 19.060-17.754 36.676-32.054 51.76l-124.61 131.442c-28.196 29.74-67.872 46.798-108.856 46.798h-399.39c-49.626 0-90-40.374-90-90v-140zM130 70v-44c0-49.626 40.374-90 90-90h584c49.626 0 90 40.374 90 90v44z" />
<glyph unicode="&#xe91f;" glyph-name="download-circular-button" d="M675.872 465.152l-131.872-131.904v338.752c0 17.664-14.336 32-32 32s-32-14.336-32-32v-338.752l-131.872 131.872c-12.512 12.512-32.768 12.512-45.248 0-12.512-12.512-12.512-32.768 0-45.247l181.024-181.024c7.68-7.68 18.176-10.048 28.13-8.287 9.92-1.76 20.448 0.639 28.128 8.287l181.024 181.024c12.512 12.512 12.512 32.766 0 45.247-12.546 12.512-32.801 12.512-45.314 0.032zM512 960c-282.751 0-512-229.215-512-512s229.249-512 512-512 512 229.249 512 512-229.215 512-512 512zM512 0c-247.425 0-448 200.575-448 448s200.575 448 448 448c247.425 0 448-200.575 448-448s-200.575-448-448-448z" />
<glyph unicode="&#xe920;" glyph-name="up-circular-button" d="M348.128 430.848l131.872 131.904v-338.752c0-17.664 14.336-32 32-32s32 14.336 32 32v338.752l131.872-131.872c12.512-12.512 32.768-12.512 45.248 0 12.512 12.512 12.512 32.768 0 45.247l-181.024 181.024c-7.68 7.68-18.176 10.048-28.13 8.287-9.92 1.76-20.448-0.639-28.128-8.287l-181.024-181.024c-12.512-12.512-12.512-32.766 0-45.247 12.546-12.512 32.801-12.512 45.314-0.032zM512-64c282.751 0 512 229.215 512 512s-229.249 512-512 512-512-229.249-512-512 229.215-512 512-512zM512 896c247.425 0 448-200.575 448-448s-200.575-448-448-448c-247.425 0-448 200.575-448 448s200.575 448 448 448z" />
<glyph unicode="&#xe921;" glyph-name="left-circular-button" d="M529.152 284.128l-131.904 131.872h338.752c17.664 0 32 14.336 32 32s-14.336 32-32 32h-338.752l131.872 131.872c12.512 12.512 12.512 32.768 0 45.248-12.512 12.512-32.768 12.512-45.247 0l-181.024-181.024c-7.68-7.68-10.048-18.176-8.287-28.13-1.76-9.92 0.639-20.448 8.287-28.128l181.024-181.024c12.512-12.512 32.766-12.512 45.247 0 12.512 12.546 12.512 32.801 0.032 45.314zM1024 448c0 282.751-229.215 512-512 512s-512-229.249-512-512 229.249-512 512-512 512 229.215 512 512zM64 448c0 247.425 200.575 448 448 448s448-200.575 448-448c0-247.425-200.575-448-448-448s-448 200.575-448 448z" />
<glyph unicode="&#xe922;" glyph-name="right-circular-button" d="M494.848 611.872l131.904-131.872h-338.752c-17.664 0-32-14.336-32-32s14.336-32 32-32h338.752l-131.872-131.872c-12.512-12.512-12.512-32.768 0-45.248 12.512-12.512 32.768-12.512 45.247 0l181.024 181.024c7.68 7.68 10.048 18.176 8.287 28.13 1.76 9.92-0.639 20.448-8.287 28.128l-181.024 181.024c-12.512 12.512-32.766 12.512-45.247 0-12.512-12.546-12.512-32.801-0.032-45.314zM0 448c0-282.751 229.215-512 512-512s512 229.249 512 512-229.249 512-512 512-512-229.215-512-512zM960 448c0-247.425-200.575-448-448-448s-448 200.575-448 448c0 247.425 200.575 448 448 448s448-200.575 448-448z" />
<glyph unicode="&#xe923;" glyph-name="corporate" d="M432 240c0-44.183 35.817-80 80-80s80 35.817 80 80c0 44.183-35.817 80-80 80v0c-44.183 0-80-35.817-80-80v0zM560 240c0-26.51-21.49-48-48-48s-48 21.49-48 48c0 26.51 21.49 48 48 48v0c26.51 0 48-21.49 48-48v0zM256 240c0-44.183 35.817-80 80-80s80 35.817 80 80c0 44.183-35.817 80-80 80v0c-44.183 0-80-35.817-80-80v0zM384 240c0-26.51-21.49-48-48-48s-48 21.49-48 48c0 26.51 21.49 48 48 48v0c26.51 0 48-21.49 48-48v0zM608 240c0-44.183 35.817-80 80-80s80 35.817 80 80c0 44.183-35.817 80-80 80v0c-44.183 0-80-35.817-80-80v0zM736 240c0-26.51-21.49-48-48-48s-48 21.49-48 48c0 26.51 21.49 48 48 48v0c26.51 0 48-21.49 48-48v0zM784 240c0-44.183 35.817-80 80-80s80 35.817 80 80c0 44.183-35.817 80-80 80v0c-44.183 0-80-35.817-80-80v0zM864 288c26.51 0 48-21.49 48-48s-21.49-48-48-48c-26.51 0-48 21.49-48 48v0c0 26.51 21.49 48 48 48v0zM80 240c0-44.183 35.817-80 80-80s80 35.817 80 80c0 44.183-35.817 80-80 80v0c-44.183 0-80-35.817-80-80v0zM208 240c0-26.51-21.49-48-48-48s-48 21.49-48 48c0 26.51 21.49 48 48 48v0c26.51 0 48-21.49 48-48v0zM976-32v96c0 44.183-35.817 80-80 80v0h-64c-21.833-0.049-41.604-8.836-56.009-23.049l0.009 0.009c-14.396 14.204-34.167 22.991-55.991 23.040h-64.009c-21.833-0.049-41.604-8.836-56.009-23.049l0.009 0.009c-14.396 14.204-34.167 22.991-55.991 23.040h-64.009c-21.833-0.049-41.604-8.836-56.009-23.049l0.009 0.009c-14.396 14.204-34.167 22.991-55.991 23.040h-64.009c-21.833-0.049-41.604-8.836-56.009-23.049l0.009 0.009c-14.396 14.204-34.167 22.991-55.991 23.040h-64.009c-44.183 0-80-35.817-80-80v0-96c0-8.837 7.163-16 16-16v0h896c8.837 0 16 7.163 16 16v0zM224 64v-80h-144v80c0 26.51 21.49 48 48 48v0h64c15.324-0.225 28.881-7.597 37.514-18.923l0.086-0.117c-3.511-8.574-5.564-18.522-5.6-28.946v-0.014zM400 64v-80h-144v80c0 26.51 21.49 48 48 48v0h64c15.324-0.225 28.881-7.597 37.514-18.923l0.086-0.117c-3.511-8.574-5.564-18.522-5.6-28.946v-0.014zM592-16h-160v80c0 26.51 21.49 48 48 48v0h26.72l-10.72-32 16-64 16 64-10.72 32h26.72c26.51 0 48-21.49 48-48v0zM768-16h-144v80c-0.036 10.438-2.089 20.386-5.79 29.489l0.19-0.529c8.719 11.443 22.276 18.815 37.564 19.040h64.036c26.51 0 48-21.49 48-48v0zM944-16h-144v80c0 0.034 0 0.074 0 0.114 0 10.45-2.057 20.42-5.788 29.526l0.188-0.52c8.747 11.382 22.301 18.696 37.57 18.88h64.030c26.51 0 48-21.49 48-48v0zM304 624h32v-32h-32zM304 560h32v-32h-32zM304 496h32v-32h-32zM432 704h32v-32h-32zM432 640h32v-32h-32zM432 576h32v-32h-32zM496 704h32v-32h-32zM464 816h32v-32h-32zM528 816h32v-32h-32zM496 640h32v-32h-32zM496 576h32v-32h-32zM560 704h32v-32h-32zM560 640h32v-32h-32zM560 576h32v-32h-32zM688 624h32v-32h-32zM688 560h32v-32h-32zM688 496h32v-32h-32zM608 864h-192c-8.837 0-16-7.163-16-16v0-80h-16c-8.837 0-16-7.163-16-16v0-51.36l-115.68-27.52c-7.12-1.722-12.326-8.039-12.326-15.572 0-0.15 0.002-0.3 0.006-0.45v0.022-273.12h-48v-32h640v32h-48v273.6c0.004 0.127 0.006 0.277 0.006 0.428 0 7.533-5.206 13.85-12.216 15.55l-0.109 0.022-115.68 27.040v51.36c0 8.837-7.163 16-16 16v0h-16v80c0 8.837-7.163 16-16 16v0zM368 384h-32v48h-32v-48h-32v260.96l96 22.72zM656 667.68l96-22.72v-260.96h-32v48h-32v-48h-32zM432 832h160v-64h-160zM544 384h-64v96h64zM624 384h-48v112c0 8.837-7.163 16-16 16v0h-96c-8.837 0-16-7.163-16-16v0-112h-48v352h224zM48.96 478.88l-32 2.080c-0.96-10.88-0.96-21.92-0.96-32.96h32c0 10.4 0 20.64 0.96 30.88zM206.24 796.96l-21.12 24.16c-16.394-14.419-31.341-29.366-45.288-45.213l-0.472-0.547 24-21.28c13.488 15.384 27.495 29.391 42.366 42.438l0.514 0.442zM126.4 706.080l-26.56 17.92c-10.57-15.764-21.215-34.154-30.684-53.231l-1.316-2.929 28.8-14.24c9.99 20.546 19.893 37.734 30.823 54.18l-1.063-1.7zM966.88 539.84l32 6.24c-4.639 24.611-10.176 45.625-17.012 66.045l1.012-3.485-30.24-10.4c5.238-15.833 10.177-35.481 13.817-55.582l0.423-2.818zM72.64 597.6l-30.24 10.4c-5.935-17.127-11.476-38.201-15.542-59.796l-0.458-2.924 32-6.24c4.033 22.94 8.973 42.645 15.141 61.799l-0.901-3.239zM306.72 864l-14.080 28.64c-22.002-10.78-40.392-21.425-57.999-33.152l1.839 1.152 17.76-26.56c14.714 9.856 31.898 19.808 49.716 28.675l2.764 1.245zM860.32 754.56l24 21.12c-14.462 16.382-29.46 31.329-45.356 45.275l-0.564 0.485-20.96-24.16c15.396-13.446 29.403-27.401 42.45-42.222l0.43-0.498zM670.88 917.92c-17.088 5.935-38.106 11.476-59.646 15.543l-2.914 0.457-6.24-32c23.083-4.718 42.711-10.24 61.758-16.988l-3.198 0.988zM787.040 860.8c-15.768 10.575-34.158 21.22-53.236 30.687l-2.924 1.313-14.24-28.8c20.499-10.021 37.739-20.082 54.183-31.226l-1.543 0.986zM956.48 668.48c-10.729 21.898-21.374 40.236-33.119 57.775l1.119-1.775-26.56-17.92c9.968-14.727 19.971-31.857 28.865-49.638l1.215-2.682zM421.28 903.2l-6.24 32c-24.936-5.216-46.055-11.229-66.56-18.534l3.52 1.094 10.4-30.24c15.788 5.567 35.536 10.981 55.743 15.14l3.137 0.54zM541.92 911.040l2.080 32c-9.688 0.65-21.001 1.020-32.4 1.020s-22.712-0.37-33.927-1.1l1.527 0.080 2.080-32c9.066 0.611 19.653 0.959 30.32 0.959s21.254-0.348 31.748-1.033l-1.428 0.075zM975.040 478.88c0-10.24 0.96-20.48 0.96-30.88h32c0 11.040 0 22.080-1.12 32.96z" />
<glyph unicode="&#xe924;" glyph-name="cityscape" d="M976-16v480h-32v64h-32v96h-32v64h-32v-64h-32v-96h-32v355.52l-96-19.2v47.68h-32v-54.080l-32-6.4v92.48h-32v-98.88l-32-6.4v73.28h-32v-79.696l-96-19.2v-93.104h-288v-32h32v-193.456c-5.248 0.864-10.56 1.456-16 1.456-61.744 0-112-57.424-112-128 0-64.352 41.824-117.616 96-126.544v-20.848c-13.392 12.112-29.984 19.392-48 19.392-44.112 0-80-43.056-80-96 0-46.368 27.536-85.136 64-94.064v-65.936h-64v-32h992v32zM272 0c0 26.464 21.536 48 48 48 17.28 0 33.312-9.36 41.84-24.432l4.96-8.784 17.2 1.216c4.704 0 9.664-0.912 15.168-2.768l15.552-5.216 4.848 15.664c10.416 33.68 41.136 56.32 76.432 56.32 29.088 0 55.936-15.856 70.064-41.392l10-18.112 15.008 14.24c18.032 17.088 47.808 17.088 65.84 0l15.008-14.24 10 18.112c14.144 25.536 40.992 41.392 70.080 41.392 34.736 0 65.296-22.208 76.048-55.264l4.496-13.808 14.192 3.136c31.712 7.040 62.704-6.016 80.928-30.064h-652.56c-1.824 5.152-3.104 10.48-3.104 16zM944 432v-418.192c-9.28 9.504-20.048 17.328-32 23.056v363.136h-224v-308.32c-8.976-6.272-17.152-13.728-24.032-22.464-2.56 1.488-5.248 2.752-7.968 3.92v358.864zM752 112c-11.008 0-21.744-1.792-32-4.864v260.864h64v-260.64c-10.192 3.024-20.944 4.64-32 4.64zM816 368h64v-321.504c-8.688 1.264-17.536 1.872-26.576 0.992-8.464 18.128-21.552 33.136-37.424 44.224zM688 464v32h224v-32zM848 592h32v-64h-32zM752 844.48v-316.48h-96v-64h-32v-384.24c-13.952 0-27.888-3.52-39.968-10.544-21.040 26.736-53.392 42.784-88.032 42.784-11.072 0-21.824-1.6-32-4.592v679.488zM208 688h224v-596.176c-16-11.136-29.152-26.288-37.616-44.624-3.376 0.464-6.8 0.72-10.352 0.752-14.992 19.984-38.704 32.048-64.032 32.048-44.112 0-80-35.888-80-80 0-5.408 0.72-10.736 1.792-16h-65.792v58.096l96 111.984v39.376c54.176 8.928 96 62.192 96 126.544 0 48.16-23.424 90.16-57.904 112h25.904v32h-32v-28.528c-14.576 7.952-30.816 12.528-48 12.528-2.752 0-5.568-0.176-8.416-0.448-10.576 15.184-24.112 27.488-39.584 35.92zM272 368c0 16.8-2.928 32.816-8.096 47.52 40.416-4.784 72.096-45.792 72.096-95.52 0-52.944-35.888-96-80-96-20.192 0-39.376 9.296-54.016 25.424 40.992 19.024 70.016 64.976 70.016 118.576zM176 230.704c17.168-20.128 39.552-33.28 64-37.296v-27.504l-64-74.672zM80 368c0 52.944 35.888 96 80 96s80-43.056 80-96c0-46.368-27.536-85.136-64-94.064v110.064h-32v-110.064c-36.464 8.928-64 47.696-64 94.064zM48 144c0 35.296 21.536 64 48 64s48-28.704 48-64-21.536-64-48-64-48 28.704-48 64zM112 49.936c11.84 2.896 22.688 9.024 32 17.44v-83.376h-32zM592 752h-96v-128h96zM560 656h-32v64h32zM592 592h-96v-128h96zM560 496h-32v64h32zM592 432h-96v-128h96zM560 336h-32v64h32zM592 272h-96v-128h96zM560 176h-32v64h32zM720 752h-96v-128h96zM688 656h-32v64h32zM240 656h32v-32h-32zM304 656h32v-32h-32zM368 656h32v-32h-32zM240 592h32v-32h-32zM304 592h32v-32h-32zM368 592h32v-32h-32zM304 528h32v-32h-32zM240 528h32v-32h-32zM368 528h32v-32h-32zM368 464h32v-32h-32z" />
<glyph unicode="&#xe925;" glyph-name="government-1" d="M510.998 413.202c49.696 0 90.126 40.374 90.126 90s-40.43 90-90.126 90-90.126-40.374-90.126-90 40.43-90 90.126-90zM510.998 533.202c16.612 0 30.126-13.458 30.126-30s-13.514-30-30.126-30-30.126 13.458-30.126 30 13.514 30 30.126 30zM30 372.606h31.126v-406.606c0-16.568 13.432-30 30-30h841.746c16.568 0 30 13.432 30 30v406.606h31.128c16.568 0 30 13.432 30 30v100c0 12.508-7.762 23.704-19.474 28.092l-462.526 173.3v76.002h144.752c16.568 0 30 13.432 30 30v120c0 16.568-13.432 30-30 30h-174.752c-16.568 0-30-13.432-30-30v-226.002l-462.526-173.3c-11.712-4.388-19.474-15.584-19.474-28.092v-100c0-16.568 13.432-30 30-30zM300.624-4h-60.248v226.606c0 16.542 13.458 30 30 30h0.248c16.542 0 30-13.458 30-30zM480.874-4v267.202c0 16.542 13.458 30 30 30h0.25c16.542 0 30-13.458 30-30v-267.202zM783.626-4h-60.248v226.606c0 16.542 13.458 30 30 30h0.248c16.542 0 30-13.458 30-30zM542 900h114.752v-60h-114.752zM60 481.81l452 169.356 452-169.356v-49.204c-24.534 0-278.682 0-292.92 0-16.568 0-30-13.432-30-30s13.432-30 30-30h231.792v-376.606h-59.248v226.606c0 49.626-40.374 90-90 90h-0.248c-49.626 0-90-40.374-90-90v-226.606h-62.254v267.202c0 49.626-40.374 90-90 90h-0.25c-49.626 0-90-40.374-90-90v-267.202h-60.25v226.606c0 49.626-40.374 90-90 90h-0.248c-49.626 0-90-40.374-90-90v-226.606h-59.248v376.606h229.79c16.568 0 30 13.432 30 30s-13.432 30-30 30c-11.768 0-278.174 0-290.916 0z" />
<glyph unicode="&#xe926;" glyph-name="parthenon" d="M950.455 689.067c11.759 0 20.015-11.614 16.117-22.709-5.385-15.319-17.907-32.757-47.106-32.757h-814.933c-29.197 0-41.719 17.436-47.104 32.757-3.9 11.093 4.356 22.709 16.115 22.709zM454.884 187.733h-114.741c-9.658 0-17.391 8.006-17.056 17.66l13.109 377.6c0.32 9.19 7.861 16.474 17.056 16.474h88.525c9.195 0 16.738-7.285 17.056-16.474l13.109-377.6c0.335-9.653-7.398-17.66-17.058-17.66zM221.641 187.729c-66.746-0.015-98.854 0.011-114.761 0.013-9.658 0-17.38 8.009-17.045 17.658l13.105 377.591c0.318 9.19 7.861 16.476 17.056 16.476h88.546c9.195 0 16.738-7.285 17.056-16.474l13.109-377.604c0.333-9.651-7.411-17.658-17.067-17.66zM683.857 187.733h-114.741c-9.658 0-17.391 8.006-17.056 17.66l13.109 377.6c0.32 9.19 7.861 16.474 17.056 16.474h88.525c9.195 0 16.738-7.285 17.056-16.474l13.109-377.6c0.333-9.653-7.401-17.66-17.058-17.66zM917.118 187.744c-15.891-0.002-47.979-0.028-114.756-0.015-9.655 0.002-17.399 8.009-17.065 17.66l13.109 377.604c0.32 9.19 7.861 16.474 17.056 16.474h88.546c9.195 0 16.738-7.285 17.056-16.476l13.103-377.589c0.335-9.651-7.394-17.658-17.050-17.658zM962.507 93.596c-120.442 0.484-780.471 0.399-900.977-0.023-10.974-0.038-19.236 10.163-16.695 20.841 4.13 17.359 15.889 39.187 49.033 39.187h836.267c33.248 0 44.983-21.833 49.082-39.194 2.517-10.671-5.743-20.853-16.708-20.811zM1024 785.685v-11.285c0-28.224-22.976-51.2-51.2-51.2h-921.6c-28.224 0-51.2 22.976-51.2 51.2v11.285c0 23.211 15.659 43.563 38.101 49.493l469.525 124.245c2.859 0.768 5.888 0.768 8.747 0l469.525-124.245c22.443-5.931 38.101-26.283 38.101-49.493zM1024 8.533v-55.467c0-9.429-7.637-17.067-17.067-17.067h-989.867c-9.429 0-17.067 7.637-17.067 17.067v55.467c0 28.224 22.976 51.2 51.2 51.2h921.6c28.224 0 51.2-22.976 51.2-51.2z" />
<glyph unicode="&#xe927;" glyph-name="suitcase" d="M640 682.667c-23.552 0-42.667 19.115-42.667 42.667v64h-170.667v-64c0-23.552-19.115-42.667-42.667-42.667s-42.667 19.115-42.667 42.667v64c0 47.061 38.272 85.333 85.333 85.333h170.667c47.061 0 85.333-38.272 85.333-85.333v-64c0-23.552-19.115-42.667-42.667-42.667zM542.293 303.787c-7.68-2.987-18.773-5.12-30.293-5.12s-22.613 2.133-32.853 5.973l-479.147 159.573v-325.547c0-64.853 52.48-117.333 117.333-117.333h789.333c64.853 0 117.333 52.48 117.333 117.333v325.547zM1024 629.333v-97.707l-501.76-167.253c-3.413-1.28-6.827-1.707-10.24-1.707s-6.827 0.427-10.24 1.707l-501.76 167.253v97.707c0 64.853 52.48 117.333 117.333 117.333h789.333c64.853 0 117.333-52.48 117.333-117.333z" />
<glyph unicode="&#xe928;" glyph-name="industry" d="M310 960h-280c-16.568 0-30-13.432-30-30v-70h340v70c0 16.568-13.432 30-30 30zM1008.928 674.022c-9.324 5.348-20.794 5.302-30.072-0.126l-296.856-173.6v147.704c0 10.748-5.75 20.674-15.072 26.022-9.324 5.348-20.794 5.302-30.072-0.126l-296.856-173.6v299.704h-340v-834c0-16.568 13.432-30 30-30h964c16.568 0 30 13.432 30 30v682c0 10.748-5.75 20.674-15.072 26.022zM460 147c0-16.568-13.432-30-30-30h-120c-16.568 0-30 13.432-30 30v120c0 16.568 13.432 30 30 30h120c16.568 0 30-13.432 30-30v-120zM802 147c0-16.568-13.432-30-30-30h-120c-16.568 0-30 13.432-30 30v120c0 16.568 13.432 30 30 30h120c16.568 0 30-13.432 30-30v-120z" />
<glyph unicode="&#xe929;" glyph-name="bus" d="M106.666 490.666v128c11.776 0 21.334 9.558 21.334 21.334s-9.558 21.334-21.334 21.334c-58.836 0-106.666-47.872-106.666-106.668v-42.666c0-35.286 28.714-64 64-64h42.666c11.776 0 21.334 9.558 21.334 21.334s-9.558 21.332-21.334 21.332zM917.334 661.334c-11.776 0-21.334-9.558-21.334-21.334s9.558-21.334 21.334-21.334v-128c-11.776 0-21.334-9.558-21.334-21.334s9.558-21.332 21.334-21.332h42.666c35.286 0 64 28.714 64 64v42.666c0 58.796-47.83 106.668-106.666 106.668zM362.666 64c-11.776 0-21.334-9.558-21.334-21.334h-128c0 11.776-9.558 21.334-21.334 21.334s-21.334-9.558-21.334-21.334v-42.666c0-35.286 28.714-64 64-64h85.336c35.286 0 64 28.714 64 64v42.666c0 11.776-9.558 21.334-21.334 21.334zM832 64c-11.776 0-21.334-9.558-21.334-21.334h-128c0 11.776-9.558 21.334-21.334 21.334s-21.332-9.558-21.332-21.334v-42.666c0-35.286 28.714-64 64-64h85.334c35.286 0 64 28.714 64 64v42.666c0 11.776-9.558 21.334-21.334 21.334zM832 960h-640c-58.838 0-106.666-47.872-106.666-106.666v-725.334c0-58.794 47.83-106.666 106.666-106.666h640c58.838 0 106.666 47.872 106.666 106.666v725.334c0 58.794-47.828 106.666-106.666 106.666zM277.334 874.666h469.334c35.286 0 64-28.714 64-64s-28.714-64-64-64h-469.334c-35.286 0-64 28.714-64 64s28.714 64 64 64zM277.334 149.334c-35.286 0-64 28.714-64 64s28.714 64 64 64c35.286 0 64-28.714 64-64s-28.716-64-64-64zM746.666 149.334c-35.286 0-64 28.714-64 64s28.714 64 64 64c35.286 0 64-28.714 64-64s-28.714-64-64-64zM853.334 426.666c0-35.286-28.714-64-64-64h-554.668c-35.286 0-64 28.714-64 64v213.334c0 35.286 28.714 64 64 64h554.666c35.286 0 64-28.714 64-64v-213.334z" />
<glyph unicode="&#xe92a;" glyph-name="lotus" d="M1015.212 217.892c-14.448 14.448-29.846 27.514-46.102 39.212-34.632-39.998-75.296-73.616-121.144-100.082-71.016-41.010-151.786-62.904-233.75-63.422 43.524-17.552 90.448-26.76 138.792-26.76 99.048 0 192.168 38.572 262.206 108.61 5.626 5.626 8.788 13.256 8.788 21.212-0.002 7.956-3.164 15.602-8.79 21.23zM54.89 257.104c-16.256-11.7-31.654-24.766-46.102-39.212-5.626-5.628-8.788-13.274-8.788-21.23s3.162-15.586 8.788-21.212c70.038-70.038 163.158-108.61 262.206-108.61 48.344 0 95.268 9.208 138.792 26.76-81.97 0.518-162.734 22.412-233.758 63.426-45.844 26.462-86.508 60.080-121.138 100.078zM206.030 208.984c49.874-28.8 107.856-48.112 169.674-53.708-106.818 59.122-164.548 141.204-191.722 188.27-29.884 51.756-50.082 107.834-60.126 166.842-29.842-1.28-59.55-5.736-88.454-13.418-13.2-3.152-23.014-15.034-23.014-29.198 0-2.624 0.344-5.236 1.024-7.77 30.64-114.284 105.452-200.7 192.618-251.018zM648.296 155.276c61.816 5.598 119.8 24.908 169.674 53.708 87.166 50.318 161.978 136.734 192.62 251.016 0.68 2.534 1.024 5.146 1.024 7.77 0 14.164-9.814 26.046-23.014 29.198-28.904 7.682-58.612 12.14-88.454 13.418-10.044-59.008-30.242-115.086-60.126-166.842-27.176-47.066-84.838-129.108-191.724-188.268zM374.602 226.104c-30.314 48.966-77.392 142.96-77.392 271.806 0 65.292 12.086 128.802 35.89 189.058-32.788 18.702-67.944 33.246-104.546 43.050-16.008 4.284-32.45-5.208-36.74-21.21-32.744-122.156-9.65-242.126 44.128-335.262 32.65-56.55 79.538-108.222 138.66-147.442zM649.368 226.086c59.136 39.222 106.034 90.902 138.688 147.46 53.778 93.138 76.872 213.106 44.128 335.262-4.29 16.002-20.732 25.496-36.74 21.21-36.608-9.804-71.766-24.352-104.558-43.058 23.8-60.252 35.886-123.76 35.886-189.050 0.002-128.956-47.16-222.976-77.404-271.824zM533.212 820.374c-5.626 5.626-13.274 8.788-21.23 8.788s-15.586-3.162-21.212-8.788c-78.578-78.578-133.56-192.010-133.56-322.462 0-130.512 55.044-243.948 133.56-322.462 5.626-5.626 13.274-8.788 21.23-8.788s15.586 3.162 21.212 8.788c78.496 78.494 133.56 191.92 133.56 322.462 0.002 130.512-55.022 243.928-133.56 322.462z" />
<glyph unicode="&#xe92b;" glyph-name="magnifying-glass" d="M1015.031-11.778l-248.848 248.848c66.753 76.743 107.168 176.873 107.168 286.311 0 240.901-195.945 436.619-436.619 436.619-240.901 0-436.619-195.945-436.619-436.619s195.945-436.619 436.619-436.619c109.439 0 209.568 40.415 286.311 107.168l248.848-248.848c5.903-5.903 13.85-9.082 21.57-9.082s15.667 2.952 21.57 9.082c11.807 11.807 11.807 31.333 0 43.14zM61.19 523.381c0 207.071 168.472 375.315 375.315 375.315 207.071 0 375.315-168.472 375.315-375.315s-168.245-375.542-375.315-375.542c-206.843 0-375.315 168.472-375.315 375.542z" />
<glyph unicode="&#xe92c;" glyph-name="phone-call-1" d="M424.024 360.024c-97.739 97.739-119.808 195.478-124.787 234.637-1.391 10.828 2.335 21.686 10.081 29.378l79.095 79.060c11.635 11.628 13.7 29.749 4.979 43.697l-125.934 195.549c-9.648 15.444-29.459 21.018-45.745 12.871l-202.169-95.214c-13.17-6.485-20.916-20.477-19.421-35.081 10.593-100.634 54.466-348.019 297.578-591.148s490.461-286.985 591.148-297.578c14.603-1.495 28.596 6.251 35.081 19.421l95.214 202.169c8.117 16.251 2.58 36.008-12.8 45.674l-195.549 125.899c-13.939 8.73-32.060 6.68-43.697-4.943l-79.060-79.095c-7.692-7.746-18.551-11.472-29.378-10.081-39.159 4.979-136.898 27.048-234.637 124.787zM812.138 412.69c-19.501 0-35.31 15.809-35.31 35.31-0.165 146.192-118.636 264.662-264.828 264.828-19.501 0-35.31 15.809-35.31 35.31s15.809 35.31 35.31 35.31c185.178-0.204 335.244-150.27 335.448-335.448 0-19.501-15.809-35.31-35.31-35.31zM988.69 412.69c-19.501 0-35.31 15.809-35.31 35.31-0.272 243.654-197.725 441.107-441.379 441.379-19.501 0-35.31 15.809-35.31 35.31s15.809 35.31 35.31 35.31c282.641-0.311 511.689-229.359 512-512 0-9.365-3.72-18.346-10.342-24.968s-15.603-10.342-24.968-10.342z" />
<glyph unicode="&#xe92d;" glyph-name="close" d="M605.814 447.162l398.725 398.737c25.948 25.936 25.948 67.871 0 93.808-25.936 25.936-67.871 25.936-93.808 0l-398.737-398.737-398.725 398.737c-25.948 25.936-67.871 25.936-93.808 0-25.948-25.936-25.948-67.871 0-93.808l398.725-398.737-398.725-398.737c-25.948-25.936-25.948-67.871 0-93.808 12.926-12.938 29.921-19.437 46.904-19.437s33.966 6.499 46.904 19.437l398.725 398.737 398.737-398.737c12.938-12.938 29.921-19.437 46.904-19.437s33.966 6.499 46.904 19.437c25.948 25.936 25.948 67.871 0 93.808z" />
</font>
</defs>
</svg>
